Asian School Girls 2014 UNRATED HDRIP X264 AC3 TiTAN

seeders: 0
leechers: 3
updated:
Added by TryMeS583.54K in Movies
Torrent verified. Downloaded 20 times.

DownloadFast Safe Anonymous
movies, software, shows...
Summary:

Violence and mayhem ensue after four school girls stumble upon an underground night club.

Written by Mughal12521.79K
Available in versions: 1080p720pBlu-RayHDRiPx264
Asian School Girls 2014 UNRATED HDRIP X264 AC3 TiTAN (Size: 981.3 MB)
  Asian School Girls 2014 UNRATED HDRIP X264 AC3 TiTAN.mkv 981.3 MB
  Asian School Girls 2014 UNRATED HDRIP X264 AC3 TiTAN.nfo 3.38 KB
  rarbg.com.txt 34 bytes

Description

Asian School Girls 2014 UNRATED HDRIP X264 AC3 TiTAN

image

http://www.imdb.com/title/tt3421270/

Source: Own

General

Format : Matroska
Format version : Version 2
File size : 981 MiB
Duration : 1h 30mn
Overall bit rate mode : Variable
Overall bit rate : 1 513 Kbps
Encoded date : UTC 2014-04-30 03:57:25
Writing application : mkvmerge v6.9.1 (\'Blue Panther\') 32bit built on Apr 18 2014 18:15:44
Writing library : libebml v1.3.0 + libmatroska v1.4.1

Video
ID : 1
Format : AVC
Format/Info : Advanced Video Codec
Format profile : [email protected]
Format settings, CABAC : Yes
Format settings, ReFrames : 3 frames
Codec ID : V_MPEG4/ISO/AVC
Duration : 1h 30mn
Bit rate mode : Variable
Bit rate : 1 099 Kbps
Maximum bit rate : 40.0 Mbps
Width : 720 pixels
Height : 400 pixels
Display aspect ratio : 16:9
Frame rate mode : Constant
Frame rate : 23.976 fps
Color space : YUV
Chroma subsampling : 4:2:0
Bit depth : 8 bits
Scan type : Progressive
Bits/(Pixel*Frame) : 0.159
Stream size : 713 MiB (73%)
Writing library : x264 core 142 r2409 d6b4e63
Default : Yes
Forced : No
Color primaries : BT.709
Transfer characteristics : BT.709
Matrix coefficients : BT.709

Audio
ID : 2
Format : AC-3
Format/Info : Audio Coding 3
Mode extension : CM (complete main)
Format settings, Endianness : Big
Codec ID : A_AC3
Duration : 1h 30mn
Bit rate mode : Constant
Bit rate : 384 Kbps
Channel(s) : 6 channels
Channel positions : Front: L C R, Side: L R, LFE
Sampling rate : 48.0 KHz
Bit depth : 16 bits
Compression mode : Lossy
Stream size : 249 MiB (25%)
Language : English
Default : Yes
Forced : No

Related Torrents

torrent name size files age seed leech

Sharing Widget


Download torrent
981.3 MB
seeders:0
leechers:3
Asian School Girls 2014 UNRATED HDRIP X264 AC3 TiTAN



To share this torrent use the code below and insert it into comments, status messages, forum posts or your signature.

Torrent: Asian School Girls 2014 UNRATED HDRIP X264 AC3 TiTAN

Trackers

tracker name
udp://12.rarbg.me:80/announce
udp://tracker.istole.it:80/announce
udp://tracker.openbittorrent.com:80/announce
udp://tracker.publicbt.com:80/announce
udp://9.rarbg.com:2710/announce
udp://9.rarbg.me:2710/announce
udp://open.demonii.com:1337/announce
udp://11.rarbg.me:80/announce
udp://tracker.ccc.de:80/announce
udp://10.rarbg.me:80/announce
ĀµTorrent compatible trackers list

Locations

name
KickassTorrents
ThePirateBay
Torrent hash: DBCA66B53F0284CAF2F4AE227C9163A94B472456

All Comments

audio
7/10
video
7/10
please, leave only comments related to that torrent
Sign In

User Opinions

Report a bug Open chat
SitemapHoozuki no Shima | Roy, Arundhati | Hotel Artemis 2018 Movie Free Download HD Cam