Asian School Girls 2014 UNRATED HDRIP X264 AC3 TiTAN

seeders: 2
leechers: 1
updated:
Added by iTake144.35K in Movies
Torrent verified. Downloaded 626 times.

DownloadFast Safe Anonymous
movies, software, shows...
Summary:

Violence and mayhem ensue after four school girls stumble upon an underground night club.

Written by Mughal12521.79K
Available in versions: 1080p720pBlu-RayHDRiPx264
Asian School Girls 2014 UNRATED HDRIP X264 AC3 TiTAN (Size: 981.3 MB)
  Asian School Girls 2014 UNRATED HDRIP X264 AC3 TiTAN.mkv 981.3 MB
  Asian School Girls 2014 UNRATED HDRIP X264 AC3 TiTAN.nfo 3.38 KB
  Torrent Downloaded from GloTorrents.com.txt 239 bytes

Description






Kidnapped by a Los Angeles crime syndicate, a group of schoolgirls must fight and seduce their way to vengeance, teaching the criminals a lesson in kicking butt and taking names.

http://www.imdb.com/title/tt3421270/

Source: Itunes

General

Format : Matroska
Format version : Version 2
File size : 981 MiB
Duration : 1h 30mn
Overall bit rate mode : Variable
Overall bit rate : 1 513 Kbps
Encoded date : UTC 2014-04-30 03:57:25
Writing application : mkvmerge v6.9.1 ('Blue Panther') 32bit built on Apr 18 2014 18:15:44
Writing library : libebml v1.3.0 + libmatroska v1.4.1

Video
ID : 1
Format : AVC
Format/Info : Advanced Video Codec
Format profile : [email protected]
Format settings, CABAC : Yes
Format settings, ReFrames : 3 frames
Codec ID : V_MPEG4/ISO/AVC
Duration : 1h 30mn
Bit rate mode : Variable
Bit rate : 1 099 Kbps
Maximum bit rate : 40.0 Mbps
Width : 720 pixels
Height : 400 pixels
Display aspect ratio : 16:9
Frame rate mode : Constant
Frame rate : 23.976 fps
Color space : YUV
Chroma subsampling : 4:2:0
Bit depth : 8 bits
Scan type : Progressive
Bits/(Pixel*Frame) : 0.159
Stream size : 713 MiB (73%)
Writing library : x264 core 142 r2409 d6b4e63
Default : Yes
Forced : No
Color primaries : BT.709
Transfer characteristics : BT.709
Matrix coefficients : BT.709

Audio
ID : 2
Format : AC-3
Format/Info : Audio Coding 3
Mode extension : CM (complete main)
Format settings, Endianness : Big
Codec ID : A_AC3
Duration : 1h 30mn
Bit rate mode : Constant
Bit rate : 384 Kbps
Channel(s) : 6 channels
Channel positions : Front: L C R, Side: L R, LFE
Sampling rate : 48.0 KHz
Bit depth : 16 bits
Compression mode : Lossy
Stream size : 249 MiB (25%)
Language : English
Default : Yes
Forced : No

http://imghost.glotorrents.c...ges/06755467696186447525.png

http://imghost.glotorrents.c...ges/48663979159792652185.png



http://imghost.glotorrents.c...ges/87687665371797935033.png

http://imghost.glotorrents.c...ges/78490987260926797170.png




Related Torrents

torrent name size files age seed leech

Sharing Widget


Download torrent
981.3 MB
seeders:2
leechers:1
Asian School Girls 2014 UNRATED HDRIP X264 AC3 TiTAN



To share this torrent use the code below and insert it into comments, status messages, forum posts or your signature.

Torrent: Asian School Girls 2014 UNRATED HDRIP X264 AC3 TiTAN

Trackers

tracker name
udp://tracker.openbittorrent.com:80/announce
udp://tracker.publicbt.com:80/announce
udp://tracker.istole.it:80/announce
udp://9.rarbg.com:2710/announce
udp://tracker.coppersurfer.tk:6969/announce
udp://coppersurfer.tk:6969/announce
udp://glotorrents.pw:6969/announce
udp://11.rarbg.com:80/announce
udp://tracker.ccc.de:80/announce
http://tracker.trackerfix.com/announce
ĀµTorrent compatible trackers list

Locations

name
KickassTorrents
Torrent hash: 7737A19C4D1D998488703E0F7144C04097107AAB

Uploader Comments

21
Anarkii2414
The real trailer is here:
http://www.youtube.com/watch?v=QpfD_2uOgjk

Not porn :(

Last edited by Anarkii, 2 years and 2 months ago

6
iTake144.35K
Uploader
Thanks for posting the real trailer..

Top Comments

52
anonymous
WHO ELSE THOUGHT THAT its a PORN?
29
MichalGreve2943
audio: 8video: 8
facts about this movie:

1. Totally crappy movie (will end around 2-4 stars on imdb)
2. The movie is made for a very specific type of "customer"

Plot: 100 asian girls in school uniforms in a land with only weird white dudes. Well I am not a scientist but........
6
iTake144.35K
Uploader
Thanks for posting the real trailer..

All Comments

audio
7/10
video
7/10
please, leave only comments related to that torrent
Sign In

Torrent & film both worked swimmingly. Arrrrgh, A HEARTY THANKS.
audio: 7video: 7
thanks
audio: 9video: 6
Meh !!!
audio: 9video: 6
decent for such a low resolution rip, good vid quality though and 6ch sound
audio: 8video: 5
need more seeds
Show More All

User Opinions

OgreV7461, daytonadave963834, rShredder2747, richo19731619, gbriel1413, supermate1386, N.Guru007913, atekonot08499, Sommie41, subratasar9 ... And 307 more
omr4803377, zoja3062824, TikkiBeLL1926, arin_aroN1257, yuleyule840, zikrya697, wargodsix485, cas007292, kressly285, mooksh83221 ... And 39 more
Report a bug Open chat
Sitemap4x SET COPRIMOZZO BORCHIE VW POLO GOLF 65MM NERO LUCIDO LOGO CERCHI LEGA TAPP TD | Close reading | Stitchers