Frozen (2013) 720p BluRay x264 [Dual-Audio][English DD 5.1 + Hindi DD 2.0] - Mafiaking - M2Tv

seeders: 280
leechers: 123
updated:
Added by mafiaking75.18K in Movies > Animation
Torrent verified. Downloaded 5,869 times.

DownloadFast Safe Anonymous
movies, software, shows...
  • add Frozen to bookmarks
  • Release date: 27 November 2013
  • Writers: Jennifer Lee (screenplay), Hans Christian Andersen (story inspired by "The Snow Queen" by), Chris Buck (story by), Jennifer Lee (story by), Shane Morris (story by)
  • Languages: English , Hindi
Summary:

When a princess with the power to turn things into ice curses her home in infinite winter, her sister, Anna teams up with a mountain man, his playful reindeer, and a snowman to change the weather condition.

Written by Thhaque414.93K
Frozen (2013) 720p BluRay x264 [Dual-Audio][English DD 5.1 + Hindi DD 2.0] - Mafiaking - M2Tv (Size: 973.78 MB)
  Frozen (2013) 720p BluRay x264 [Dual-Audio][English DD 5.1 + Hindi DD 2.0] - Mafiaking - M2Tv.mkv 952.63 MB
  sample.mkv 21.15 MB
  Torrent Downloaded From ExtraTorrent.cc.txt 360 bytes

Description



Ratings: 7.6/10

Genere: Animation, Adventure, Comedy

General
Unique ID : 221450317882346057825543833733668063805 (0xA699C7A39E4DB5E3B7704E636D0CCA3D)
Complete name : Frozen (2013) 720p BluRay x264 [Dual-Audio][English DD 5.1 + Hindi DD 2.0] - Mafiaking - M2Tv.mkv
Format : Matroska
Format version : Version 4 / Version 2
File size : 953 MiB
Duration : 1h 42mn
Overall bit rate mode : Variable
Overall bit rate : 1 303 Kbps
Movie name : Frozen (2013) 720p BluRay x264 [Dual-Audio][English DD 5.1 + Hindi DD 2.0] - Mafiaking - M2Tv
Encoded date : UTC 2016-06-05 14:13:33
Writing application : mkvmerge v8.3.0 ('Over the Horizon') 64bit
Writing library : libebml v1.3.1 + libmatroska v1.4.2

Video
ID : 1
Format : AVC
Format/Info : Advanced Video Codec
Format profile : [email protected]
Format settings, CABAC : Yes
Format settings, ReFrames : 3 frames
Codec ID : V_MPEG4/ISO/AVC
Duration : 1h 42mn
Bit rate mode : Variable
Bit rate : 950 Kbps
Maximum bit rate : 62.5 Mbps
Width : 1 280 pixels
Height : 568 pixels
Display aspect ratio : 2.25:1
Frame rate mode : Constant
Frame rate : 23.976 fps
Color space : YUV
Chroma subsampling : 4:2:0
Bit depth : 8 bits
Scan type : Progressive
Bits/(Pixel*Frame) : 0.054
Stream size : 676 MiB (71%)
Title : Mafiaking
Language : English
Default : Yes
Forced : No

Audio #1
ID : 2
Format : AC-3
Format/Info : Audio Coding 3
Mode extension : CM (complete main)
Format settings, Endianness : Big
Codec ID : A_AC3
Duration : 1h 42mn
Bit rate mode : Constant
Bit rate : 128 Kbps
Channel(s) : 2 channels
Channel positions : Front: L R
Sampling rate : 48.0 KHz
Compression mode : Lossy
Stream size : 93.6 MiB (10%)
Title : Mafiaking
Language : Hindi
Default : Yes
Forced : No

Audio #2
ID : 3
Format : AC-3
Format/Info : Audio Coding 3
Mode extension : CM (complete main)
Format settings, Endianness : Big
Codec ID : A_AC3
Duration : 1h 42mn
Bit rate mode : Constant
Bit rate : 224 Kbps
Channel(s) : 6 channels
Channel positions : Front: L C R, Side: L R, LFE
Sampling rate : 48.0 KHz
Compression mode : Lossy
Stream size : 164 MiB (17%)
Title : Mafiaking
Language : English
Default : No
Forced : No

SAMPLE WITH IN TORRENT




**To View Image In Full Size Click on Thumbnails**

image

image

image

image

image

image

image

image

Related Torrents

torrent name size files age seed leech

Sharing Widget


Download torrent
973.78 MB
seeders:256
leechers:103
Frozen (2013) 720p BluRay x264 [Dual-Audio][English DD 5.1 + Hindi DD 2.0] - Mafiaking - M2Tv



To share this torrent use the code below and insert it into comments, status messages, forum posts or your signature.

Torrent: Frozen (2013) 720p BluRay x2...i DD 2.0] - Mafiaking - M2Tv

Trackers

tracker name
udp://tracker.openbittorrent.com:80/announce
udp://tracker.coppersurfer.tk:6969/announce
udp://glotorrents.pw:6969/announce
udp://p4p.arenabg.ch:1337/announce
udp://tracker.aletorrenty.pl:2710/announce
udp://9.rarbg.to:2710/announce
udp://torrent.gresille.org:80/announce
udp://tracker.piratepublic.com:1337/announce
udp://explodie.org:6969/announce
udp://tracker.opentrackr.org:1337/announce
µTorrent compatible trackers list

Locations

name
KickassTorrents
ExtraTorrent
Torrent hash: 71088E5C38599DF246708A0E1911FB6898AEA519

All Comments

audio
9/10
video
9/10
please, leave only comments related to that torrent
Sign In

Thats what I'm trying to tell. It's hindi audio has beep till in the end. Please help, mafiaking.
yes, thats right. The hindi audio is have buzz sound till the end.
audio: 8video: 9
Suppprrrbbb
audio: 9video: 9
Good print, thanks...
upload in x265 , x264 is old now
audio: 9video: 9
mast hai..
Show More All
audio: 10video: 10

User Opinions

chr13bau3651, dj maan3307, violentstorm2297, cyborg0091798, One.Punch.Man1480, sameer_baloch838, RDMAV355, deathbyforce144, MAQEELIUS106, useless00719 ... And 66 more
Biggie1988102
Report a bug Open chat
SitemapFilme für Jugendliche und Erwachsene | Internship Experience @ All India Reporter (AIR), Nagpur: Friendly Environment, Make Head Notes and Case Notes | Lacke Farben